|.
Holy Flying Circus 2011 DVDRiP XviD-UNVEiL.|

Plot: In 1979 the Monty Python comedy team return from making their film 'Monty Python's Life of Brian' in Tunisia. Premiered in America the film is pilloried by ultra-right religious groups for its depiction of Christ. In England the Popular Peoples' Church of St Sophia (whose members include a Tourettes sufferer who shouts out swear words) find a copy of the script in a dustbin and lobby the British censor for its suppression,leading to many local councils banning its screening. Death threats follow and Michael Palin - "the nicest man in Britain" - has his effigy burned on his front lawn. Finally crazed TV programmer Alan Dick persuades Palin and co-star John Cleese to defend the picture on a late night chat show against the Bishop of Southwark and religious commentator Malcolm Muggeridge. Thanks to Cleese's reasoning the Pythons are seen to triumph,winning over the Popular Peoples' Church...
Kod:
http://www.imdb.com/title/tt1981637


Kod:
General
Complete name                            : D:\Neeraj07\DwnlData\Neeraj07\holy.flying.circus.2011.dvdrip.xvid-unveil.avi
Format                                   : AVI
Format/Info                              : Audio Video Interleave
File size                                : 699 MiB
Duration                                 : 1h 29mn
Overall bit rate                         : 1 095 Kbps
Writing application                      : VirtualDubMod 1.5.10.2 (build 2540/release)
Writing library                          : VirtualDubMod build 2540/release

Video
ID                                       : 0
Format                                   : MPEG-4 Visual
Format profile                           : Advanced Simple@L5
Format settings, BVOP                    : 2
Format settings, QPel                    : No
Format settings, GMC                     : No warppoints
Format settings, Matrix                  : Default (H.263)
Codec ID                                 : XVID
Codec ID/Hint                            : XviD
Duration                                 : 1h 29mn
Bit rate                                 : 943 Kbps
Width                                    : 640 pixels
Height                                   : 320 pixels
Display aspect ratio                     : 2.000
Frame rate                               : 25.000 fps
Color space                              : YUV
Chroma subsampling                       : 4:2:0
Bit depth                                : 8 bits
Scan type                                : Progressive
Compression mode                         : Lossy
Bits/(Pixel*Frame)                       : 0.184
Stream size                              : 602 MiB (86%)
Writing library                          : XviD 1.2.1 (UTC 2008-12-04)

Audio
ID                                       : 1
Format                                   : MPEG Audio
Format version                           : Version 1
Format profile                           : Layer 3
Mode                                     : Joint stereo
Mode extension                           : MS Stereo
Codec ID                                 : 55
Codec ID/Hint                            : MP3
Duration                                 : 1h 29mn
Bit rate mode                            : Variable
Bit rate                                 : 144 Kbps
Channel(s)                               : 2 channels
Sampling rate                            : 48.0 KHz
Compression mode                         : Lossy
Stream size                              : 88.9 MiB (13%)
Alignment                                : Aligned on interleaves
Interleave, duration                     : 24 ms (0.60 video frame)
Interleave, preload duration             : 523 ms
Writing library                          : LAME3.98 
Encoding settings                        : -m j -V 4 -q 3 -lowpass 17.5 --abr 144
Download Link
Kod:
http://extabit.com/file/27ax0athmcpvs/holy.flying.circus.2011.dvdrip.xvid-unveil.rar